#TITLE:Max Power;
#SUBTITLE:;
#ARTIST:DR.LOVE FEAT. D.ESSEX;
#TITLETRANSLIT:;
#SUBTITLETRANSLIT:;
#ARTISTTRANSLIT:;
#CREDIT:;
#BANNER:max power_logo.jpg;
#BACKGROUND:max power_bg.jpg;
#LYRICSPATH:;
#CDTITLE:Lan.png;
#MUSIC:Max Power.mp3;
#OFFSET:0.000;
#SAMPLESTART:39.474;
#SAMPLELENGTH:12.000;
#SELECTABLE:YES;
#BPMS:0.000=152.000;
#STOPS:;
#BGCHANGES:;
// cache tags:
#FIRSTBEAT:36.000;
#LASTBEAT:250.500;
#SONGFILENAME:Songs/lan sky/Max Power/Max Power.sm;
#HASMUSIC:1;
#HASBANNER:1;
#MUSICLENGTH:102.430;
// end cache tags

//---------------dance-single - sky----------------
#NOTES:
     dance-single:
     sky:
     Hard:
     10:
     0.911,0.887,0.508,0.000,1.000,599.000,52.000,0.000,0.000,2.000:

0000
0000
0000
0000
,
0000
0000
0000
0000
,
0000
0000
0000
0000
,
0000
0000
0000
0000
,
0000
0000
0000
0000
,
0000
0000
0000
0000
,
0000
0000
0000
0000
,
0000
0000
0000
0000
,
0000
0000
0000
0000
,
1001
0000
0000
0000
1000
0010
1000
0010
1000
0010
0001
0000
0000
0000
0000
0000
,
0001
0010
1000
0100
0001
0010
1000
0000
0000
0000
0000
0000
0000
0000
0000
0000
,
1001
0000
0000
0000
0001
0100
0001
0100
0001
0100
1000
0000
0000
0000
0000
0000
,
1000
0100
0001
0010
1000
0100
0001
0000
0000
0000
0000
0000
0000
0000
0000
0000
,
1000
0100
0010
0001
0010
0000
1000
0100
0001
0010
0100
0000
0010
0100
1000
0100
,
0010
0000
0010
0100
0001
0010
1000
0000
0010
0001
0100
0010
0001
0000
0010
1000
,
0100
0010
0001
0000
0010
0001
0100
1000
0001
0000
0010
0001
0100
0010
1000
0000
,
0001
0010
1000
0100
0010
0000
0100
0010
0001
0100
1000
0100
0001
0000
0000
0000
,
1000
0010
0100
0001
0010
0000
1000
0100
0001
0010
0100
0000
0010
0100
1000
0001
,
0100
0000
0010
0100
0001
0010
1000
0000
0010
1000
0100
0010
0001
0000
0010
1000
,
0100
0001
1000
0000
0010
0001
0100
1000
0001
0000
0010
0001
0100
0010
1000
0000
,
0001
0010
1000
0100
0001
1000
0001
1000
0001
0000
0000
0000
0000
0000
0000
0000
,
1000
1000
1000
0000
0001
0100
0010
0001
0100
0000
0000
0000
1000
0100
0010
0001
,
0100
0000
0001
1000
0010
0001
0100
0010
1000
0000
0000
0000
0001
0000
1000
1000
,
1000
0000
0001
1000
0001
1000
0001
1000
0001
1000
0000
0000
0000
0000
0000
0000
,
1000
0100
0010
0001
0100
0010
0001
0010
1000
0100
0010
0001
0100
1000
0001
0010
,
1000
0001
1000
0001
1000
0001
1000
0001
1000
0000
0000
0000
1000
1000
1000
0000
,
0100
1000
0010
0100
0001
0010
1000
0010
0001
0000
0000
0000
1000
0100
0010
0001
,
0010
0000
0100
0000
1000
0001
1000
0001
1000
0000
0000
0000
0000
0000
0000
0000
,
0100
1000
0010
0100
0001
0010
1000
0001
0100
1000
0010
0100
0001
0010
1000
0000
,
0011
1100
0011
0110
0011
1100
0000
0000
,
0110
0011
1100
0110
0011
1100
0000
0000
,
1100
0110
0011
1100
0110
1001
0000
0000
,
0011
1010
0110
1001
0101
1010
0000
0000
,
0110
1100
0011
0110
0011
1100
0000
0000
,
0110
1010
0110
0101
0101
1010
0000
0000
,
0110
0011
1001
0000
0001
0010
0100
1000
,
0010
0000
0100
0000
0001
0001
0001
0001
0001
0001
0001
0000
0000
0100
0000
0000
,
1100
0001
0010
0100
1001
0000
0100
0001
0010
1000
0100
0000
0001
0010
1000
0001
,
0100
0000
0010
0100
0001
0010
1000
0000
0001
0100
0010
0001
0100
0000
1000
0100
,
0010
0001
0100
0000
0001
0010
0100
1000
0010
0000
0001
1000
0100
0001
0010
0000
,
0000
1000
0001
1000
0001
1000
0001
1000
0001
1000
0001
0000
0000
0011
0000
0000
,
0001
0010
1000
0001
0100
0000
0001
0100
0010
0001
0100
0000
1000
0010
0001
0010
,
0100
0000
0010
0100
1000
0010
0001
0000
0010
0001
0100
0010
1000
0000
0010
0100
,
0001
1000
0010
0000
0100
0001
1000
0010
0100
0000
0010
0100
1000
0010
0001
0000
,
1000
0010
0001
0010
1000
1000
1000
1000
1000
1000
1000
0000
0000
0001
0000
0000
,
1000
0010
0100
0010
0001
0000
0100
1000
0010
0100
1000
0000
0001
0010
1000
0100
,
0010
0000
0001
0010
0100
0001
0010
0000
1000
0100
0001
0100
0010
0000
1000
0010
,
0100
0001
0010
0000
1000
0100
0001
0010
0100
0000
0010
0001
0100
0010
1000
0000
,
0001
0100
1000
0001
0010
0000
0100
0010
0001
0100
1000
0000
0000
0010
0000
0000
,
1000
0100
0001
0010
0100
0000
0010
0100
0001
0010
0100
0000
1000
0100
0001
1000
,
0010
0000
0001
0010
0100
1000
0001
0000
0001
0100
1000
0001
0010
0000
0001
0010
,
0100
1000
0010
0000
0100
0001
1000
0100
0010
0000
0100
0010
0001
0010
1000
0000
,
0010
0001
0100
0010
0001
0001
0001
0001
0001
0001
0001
0000
0000
0000
0000
0000
,
1000
0100
0010
0001
0000
1000
0100
0010
1000
0100
1000
0001
0100
0010
0100
0000
,
0001
0010
0100
1000
0000
0100
0010
1000
0001
0010
0100
0001
1000
0100
0010
0000
,
0100
0010
1000
0001
0000
0100
0010
1000
0001
0100
0001
0010
1000
0100
0001
0000
,
1000
0001
0100
0010
0000
1000
0010
0100
0001
0010
1000
0001
0100
0010
0001
0000
,
1000
0010
0100
0001
0000
0100
0001
1000
0001
0010
0100
0001
0010
0100
1000
0000
,
0100
1000
0010
0001
0000
0100
1000
0001
0010
1000
0100
0010
0001
0100
0010
0000
,
0100
0010
1000
0001
0000
1000
0100
0010
0001
0100
0010
0001
0100
0010
1000
0000
,
0001
0010
1000
0010
0001
0000
0001
0000
0001
0000
0001
0000
1100
0000
0000
0000
,
0011
1100
0000
0000
0110
0000
0001
1100
,
0000
0000
0110
0000
0111
1101
0000
0000
;
